Follow us on...
Follow us on Twitter Follow us on Facebook Watch us on YouTube

Reviews hay rinh note 4, galaxy V được vi vu Hàn Quốc

Gameshow “Ai Là Triệu Phú” trên VTV đang chờ đón bạn – Tải ngay!

Lời mời tham dự chương trình từ thiện "Giáng Sinh Trong Mắt Em"

Mời offline công nghệ cùng Vn-Zoom tại Hà Nội

Chiêm ngưỡng BaoMoi đẹp "tuyệt diệu" trên Windows Phone

Mời offline công nghệ cùng VN-Zoom tại TP HCM
kết quả từ 1 tới 1 trên 1
  1. #1
    pub.vn's Avatar
    pub.vn vẫn chưa có mặt trong diễn đàn Rìu Sắt
    Tham gia
    Sep 2011
    Bài
    132
    Cảm ơn
    8
    Điểm
    852/99 bài viết

    Default [FsVN]Wildest Explorer Viet Nam 1080i HDTV AVC_BHT - Khám Phá Hoang Dã Việt Nam (Sub Việt)


    Wildest Explorer Viet Nam 1080i HDTV AVC_BHT

    Khám Phá Hoang Dã Việt Nam (Sub Việt)




    Mời các bạn theo chân Tiến sĩ Mike Leahy khám phá những loài vật, kí sinh trùng nguy hiểm tại Việt nam nhé!

    Media info
    Code:
       General
          Unique ID : 214326869401726796770230339288802345965 (0xA13DDA8359D522C7849EBB8FD12943ED)
          Complete name :Wildest Explorer-Viet Nam 1080i HDTV AVC_BHT (SubViet).mkv
          Format : Matroska
          Format version : Version 2
          File size : 2.46 GiB
          Duration : 47mn 7s
          Overall bit rate : 7 480 Kbps
          Encoded date : UTC 2012-09-04 12:39:58
          Writing application : mkvmerge v5.8.0 ('No Sleep / Pillow') built on Sep  2 2012 15:37:04
          Writing library : libebml v1.2.3 + libmatroska v1.3.0
       Video #2
          ID : 2
          Format : AVC
          Format/Info : Advanced Video Codec
          Format profile : High@L4.0
          Format settings, CABAC : Yes
          Format settings, ReFrames : 3 frames
          Muxing mode : Header stripping
          Codec ID : V_MPEG4/ISO/AVC
          Duration : 47mn 7s
          Bit rate : 7 139 Kbps
          Width : 1 920 pixels
          Height : 1 080 pixels
          Display aspect ratio : 16:9
          Frame rate : 25.000 fps
          Color space : YUV
          Chroma subsampling : 4:2:0
          Bit depth : 8 bits
          Scan type : Interlaced
          Scan order : Top Field First
          Bits/(Pixel*Frame) : 0.138
          Stream size : 2.35 GiB (95%)
          Default : Yes
          Forced : No
          Color primaries : BT.709-5, BT.1361, IEC 61966-2-4, SMPTE RP177
          Transfer characteristics : BT.709-5, BT.1361
          Matrix coefficients : BT.709-5, BT.1361, IEC 61966-2-4 709, SMPTE RP177
       Audio #1
          ID : 1
          Format : MPEG Audio
          Format version : Version 1
          Format profile : Layer 2
          Muxing mode : Header stripping
          Codec ID : A_MPEG/L2
          Codec ID/Hint : MP2
          Duration : 47mn 7s
          Bit rate mode : Constant
          Bit rate : 192 Kbps
          Channel(s) : 2 channels
          Sampling rate : 48.0 KHz
          Compression mode : Lossy
          Delay relative to video : -22ms
          Stream size : 64.7 MiB (3%)
          Default : Yes
          Forced : No





    Phim kèm phụ đề Việt chuẩn:
    Code:
    
    
    Hãy gõ KHO PHIM KHOA HOC vào google nhé ==> 1 kho hoành tráng + SUB Việt

  2. Có 5 thành viên cảm ơn pub.vn cho bài viết này:
    alwayswithoutme (28-09-2012), dangky_salem (05-10-2012), discovery_w123 (02-11-2012), jackiechow17 (19-10-2012), ngocman17 (27-11-2012)

 

 

Quyền sử dụng

  • Bạn không thể gửi chủ đề mới
  • Bạn không thể gửi trả lời
  • Bạn không thể gửi file đính kèm
  • Bạn không thể tự sửa bài viết của mình
  •