Follow us on...
Follow us on Twitter Follow us on Facebook Watch us on YouTube

Reviews hay rinh note 4, galaxy V được vi vu Hàn Quốc

Gameshow “Ai Là Triệu Phú” trên VTV đang chờ đón bạn – Tải ngay!

Lời mời tham dự chương trình từ thiện "Giáng Sinh Trong Mắt Em"

Mời offline công nghệ cùng Vn-Zoom tại Hà Nội

Chiêm ngưỡng BaoMoi đẹp "tuyệt diệu" trên Windows Phone

Mời offline công nghệ cùng VN-Zoom tại TP HCM
kết quả từ 1 tới 5 trên 5
  1. #1
    mockingbirdreal's Avatar
    mockingbirdreal vẫn chưa có mặt trong diễn đàn Một điều là mãi mãi !!!
    Tham gia
    Jun 2008
    Bài
    7.413
    Cảm ơn
    5.980
    Điểm
    27.285/5.041 bài viết

    Default [MF] Monsters Vs Aliens: B.O.B.s Big Break 3D 1080p Half-SBS AC3



    Code:
    Format                           : Matroska
    File size                        : 579 MiB
    Duration                         : 13mn 21s
    Overall bit rate                 : 6 062 Kbps
    Writing application              : Lavf51.12.1
    Writing library                  : Lavf51.12.1
    
    Video
    ID                               : 1
    Format                           : AVC
    Format/Info                      : Advanced Video Codec
    Format profile                   : Baseline@L1.3
    Format settings, CABAC           : No
    Format settings, ReFrames        : 1 frame
    Format settings, GOP             : M=1, N=12
    Codec ID                         : V_MPEG4/ISO/AVC
    Duration                         : 13mn 21s
    Bit rate                         : 5 877 Kbps
    Width                            : 1 920 pixels
    Height                           : 1 080 pixels
    Display aspect ratio             : 16:9
    Frame rate                       : 47.952 fps
    Color space                      : YUV
    Chroma subsampling               : 4:2:0
    Bit depth                        : 8 bits
    Scan type                        : Progressive
    Bits/(Pixel*Frame)               : 0.059
    Stream size                      : 561 MiB (97%)
    Language                         : English
    
    Audio
    ID                               : 2
    Format                           : AC-3
    Format/Info                      : Audio Coding 3
    Mode extension                   : CM (complete main)
    Codec ID                         : A_AC3
    Duration                         : 13mn 21s
    Bit rate mode                    : Constant
    Bit rate                         : 64.0 Kbps
    Channel(s)                       : 2 channels
    Channel positions                : Front: L R
    Sampling rate                    : 44.1 KHz
    Bit depth                        : 16 bits
    Compression mode                 : Lossy
    Delay relative to video          : 4ms
    Stream size                      : 6.11 MiB (1%)
    Language                         : English / English




    mockingbirdreal@vn-zoom
    ==> My Movies Index <==
    Recommendations: HD-UNiT3D, EliteCoder, RKO, 4ko, GHoST

  2. Có 5 thành viên cảm ơn mockingbirdreal cho bài viết này:
    Chaudk245 (25-03-2012), HTMmaimai (30-04-2013), kldmobile_pc (08-06-2011), kyuzo07 (22-07-2011), [K]akashi (02-06-2011)

  3. #2
    atinybaby2008's Avatar
    atinybaby2008 vẫn chưa có mặt trong diễn đàn Búa Gỗ
    Tham gia
    Mar 2009
    Bài
    13
    Cảm ơn
    0
    Điểm
    2/2 bài viết

    Default

    ko xem dc rụ cac ban oi !!!!

  4. #3
    cucbebi123's Avatar
    cucbebi123 vẫn chưa có mặt trong diễn đàn Thành viên đang bị kỷ luật
    Tham gia
    Sep 2011
    Đến từ
    Bạn có thể thông báo những tên nói chuyện trực tuyến ở đây nếu muốn các th
    Bài
    507
    Cảm ơn
    45
    Điểm
    190/161 bài viết

    Default

    tks phim hay lắm

 

 

Quyền sử dụng

  • Bạn không thể gửi chủ đề mới
  • Bạn không thể gửi trả lời
  • Bạn không thể gửi file đính kèm
  • Bạn không thể tự sửa bài viết của mình
  •