Follow us on...
Follow us on Twitter Follow us on Facebook Watch us on YouTube

Reviews hay rinh note 4, galaxy V được vi vu Hàn Quốc

Gameshow “Ai Là Triệu Phú” trên VTV đang chờ đón bạn – Tải ngay!

Lời mời tham dự chương trình từ thiện "Giáng Sinh Trong Mắt Em"

Mời anh em tham gia Vn-zoom support team

Chiêm ngưỡng BaoMoi đẹp "tuyệt diệu" trên Windows Phone

Vn-Zoom.com tặng các bạn thành viên may mắn một chiếc Note 4
Trang 1/2 1 2 cuốicuối
kết quả từ 1 tới 15 trên 22
  1. #1
    mockingbirdreal's Avatar
    mockingbirdreal vẫn chưa có mặt trong diễn đàn Một điều là mãi mãi !!!
    Tham gia
    Jun 2008
    Bài
    7.412
    Cảm ơn
    5.980
    Điểm
    27.288/5.041 bài viết

    Default [MF/DL] The Reef 3D Half SBS - Phim tài liệu về đại dương

    The Reef 3D Half SBS


    Code:
    Format                           : Matroska
    File size                        : 1.09 GiB
    Duration                         : 27mn 0s
    Overall bit rate                 : 5 786 Kbps
    Encoded date                     : UTC 2010-12-11 07:26:00
    Writing application              : mkvmerge v4.3.0 ('Escape from the Island') built on Sep  5 2010 10:30:51
    Writing library                  : libebml v1.0.0 + libmatroska v1.0.0
    
    Video
    ID                               : 1
    Format                           : AVC
    Format/Info                      : Advanced Video Codec
    Format profile                   : High@L4.0
    Format settings, CABAC           : Yes
    Format settings, ReFrames        : 4 frames
    Codec ID                         : V_MPEG4/ISO/AVC
    Duration                         : 27mn 0s
    Bit rate                         : 5 404 Kbps
    Width                            : 1 920 pixels
    Height                           : 1 080 pixels
    Display aspect ratio             : 16:9
    Frame rate                       : 25.000 fps
    Color space                      : YUV
    Chroma subsampling               : 4:2:0
    Bit depth                        : 8 bits
    Scan type                        : Progressive
    Bits/(Pixel*Frame)               : 0.104
    Stream size                      : 1 021 MiB (91%)
    Writing library                  : x264 core 105 r1724 b02df7b
    
    Audio
    ID                               : 2
    Format                           : AC-3
    Format/Info                      : Audio Coding 3
    Mode extension                   : CM (complete main)
    Codec ID                         : A_AC3
    Duration                         : 27mn 0s
    Bit rate mode                    : Constant
    Bit rate                         : 384 Kbps
    Channel(s)                       : 2 channels
    Channel positions                : Front: L R
    Sampling rate                    : 48.0 KHz
    Bit depth                        : 16 bits
    Compression mode                 : Lossy
    Stream size                      : 74.2 MiB (7%)
    Language                         : English





    mockingbirdreal@vn-zoom
    ==> My Movies Index <==
    Recommendations: HD-UNiT3D, EliteCoder, RKO, 4ko, GHoST

  2. Có 30 thành viên cảm ơn mockingbirdreal cho bài viết này:
    anhbakhia11 (21-02-2012), anhbao1205 (15-01-2012), anhchangdaukho (09-04-2011), backsomeday (11-05-2011), binhnv143 (28-02-2012), Chaudk245 (24-02-2012), daikon (07-06-2011), dinhngoccam (12-01-2012), haz0nz0n (01-10-2011), hothich (07-02-2012), HTMmaimai (27-01-2011), JGK (15-09-2011), khuongngodinh (13-02-2011), konhonoi (09-02-2011), luonghaihoa1964 (02-11-2012), Mabuw (15-06-2011), macheri (13-02-2012), minhtamag (22-04-2011), miringda (04-10-2011), nam9690 (12-05-2011), nhatbui (24-02-2012), qwtuyen (02-10-2011), samaka (26-11-2011), sondmy10 (13-03-2012), thangnd_1211 (05-05-2011), tony phong (04-09-2011), tuanbaotai (19-02-2012), VoDanhPhD (08-03-2012), vutrung46nt3 (27-10-2012), [K]akashi (14-01-2011)

  3. #2
    [K]akashi's Avatar
    [K]akashi vẫn chưa có mặt trong diễn đàn Cống hiến cho [V-Z]
    Tham gia
    Jan 2010
    Bài
    6.274
    Cảm ơn
    4.107
    Điểm
    18.846/2.296 bài viết

    Default

    hè.hè, hay đó nha

  4. Có 2 thành viên cảm ơn [K]akashi cho bài viết này:
    anhchangdaukho (09-04-2011), konhonoi (09-02-2011)

  5. #3
    DO NAM's Avatar
    DO NAM vẫn chưa có mặt trong diễn đàn Búa Gỗ
    Tham gia
    Aug 2008
    Bài
    15
    Cảm ơn
    2
    Điểm
    3/3 bài viết

    Default Hu hu

    Không giải nén được là sao vậy

  6. Có 1 thành viên cảm ơn DO NAM cho bài viết này:
    anhchangdaukho (09-04-2011)

  7. #4
    anhchangdaukho's Avatar
    anhchangdaukho vẫn chưa có mặt trong diễn đàn Rìu Bạc
    Tham gia
    Feb 2010
    Bài
    319
    Cảm ơn
    4.664
    Điểm
    282/77 bài viết

    Default

    Cho thông tin về phim đi bạn!!

  8. #5
    aeryhaesyh's Avatar
    aeryhaesyh vẫn chưa có mặt trong diễn đàn Gà Con
    Tham gia
    Jan 2011
    Bài
    2
    Cảm ơn
    0
    Điểm
    3/2 bài viết

    Default

    Trích mockingbirdreal View Post
    The Reef 3D Half SBS


    Code:
    Format                           : Matroska
    File size                        : 1.09 GiB
    Duration                         : 27mn 0s
    Overall bit rate                 : 5 786 Kbps
    Encoded date                     : UTC 2010-12-11 07:26:00
    Writing application              : mkvmerge v4.3.0 ('Escape from the Island') built on Sep  5 2010 10:30:51
    Writing library                  : libebml v1.0.0 + libmatroska v1.0.0
    
    Video
    ID                               : 1
    Format                           : AVC
    Format/Info                      : Advanced Video Codec
    Format profile                   : High@L4.0
    Format settings, CABAC           : Yes
    Format settings, ReFrames        : 4 frames
    Codec ID                         : V_MPEG4/ISO/AVC
    Duration                         : 27mn 0s
    Bit rate                         : 5 404 Kbps
    Width                            : 1 920 pixels
    Height                           : 1 080 pixels
    Display aspect ratio             : 16:9
    Frame rate                       : 25.000 fps
    Color space                      : YUV
    Chroma subsampling               : 4:2:0
    Bit depth                        : 8 bits
    Scan type                        : Progressive
    Bits/(Pixel*Frame)               : 0.104
    Stream size                      : 1 021 MiB (91%)
    Writing library                  : x264 core 105 r1724 b02df7b
    
    Audio
    ID                               : 2
    Format                           : AC-3
    Format/Info                      : Audio Coding 3
    Mode extension                   : CM (complete main)
    Codec ID                         : A_AC3
    Duration                         : 27mn 0s
    Bit rate mode                    : Constant
    Bit rate                         : 384 Kbps
    Channel(s)                       : 2 channels
    Channel positions                : Front: L R
    Sampling rate                    : 48.0 KHz
    Bit depth                        : 16 bits
    Compression mode                 : Lossy
    Stream size                      : 74.2 MiB (7%)
    Language                         : English





    tuyet voi qua moi !

  9. Có 2 thành viên cảm ơn aeryhaesyh cho bài viết này:
    davi3971 (23-09-2011), VoDanhPhD (08-03-2012)

  10. #6
    neo_hp9x's Avatar
    neo_hp9x vẫn chưa có mặt trong diễn đàn Búa Gỗ
    Tham gia
    Aug 2010
    Bài
    23
    Cảm ơn
    25
    Điểm
    6/3 bài viết

    Default

    Nhung phim 3D ce Dai duong rat thu vi Minh moi dớ may kai tren youtube oy, rat hay

  11. #7
    Topokki's Avatar
    Topokki vẫn chưa có mặt trong diễn đàn Gà Con
    Tham gia
    Aug 2011
    Bài
    3
    Cảm ơn
    0
    Điểm
    0/0 bài viết

    Default

    Phim hay qua, cam on hen

  12. #8
    baolong226's Avatar
    baolong226 vẫn chưa có mặt trong diễn đàn Búa Đá
    Tham gia
    Jan 2011
    Bài
    60
    Cảm ơn
    87
    Điểm
    15/12 bài viết

    Default

    cai này sao coi dc vậy???

  13. #9
    Tham gia
    Oct 2011
    Bài
    6
    Cảm ơn
    0
    Điểm
    0/0 bài viết

    Default

    co lien download full luon k? cu gap khuc chan chet duoc

  14. #10
    frank58's Avatar
    frank58 vẫn chưa có mặt trong diễn đàn Búa Đá
    Tham gia
    Mar 2011
    Bài
    67
    Cảm ơn
    373
    Điểm
    4/4 bài viết

    Default

    cam on rat nhieu

  15. #11
    dinhngoccam's Avatar
    dinhngoccam vẫn chưa có mặt trong diễn đàn Búa Gỗ
    Tham gia
    Sep 2008
    Bài
    14
    Cảm ơn
    305
    Điểm
    0/0 bài viết

    Default

    Pass : mockingbirdreal@vn-zoom không giải nén được, sao vậy ?

  16. #12
    Tham gia
    Feb 2012
    Bài
    2
    Cảm ơn
    0
    Điểm
    0/0 bài viết

    Default

    làm vì có nén ma giải. chỉ nối đuôi .001,002 ai thôi. thanks

  17. #13
    mtv221288's Avatar
    mtv221288 vẫn chưa có mặt trong diễn đàn Gà Con
    Tham gia
    Mar 2009
    Bài
    4
    Cảm ơn
    0
    Điểm
    0/0 bài viết

    Default

    Kiểm tra link dùm bạn ơi! không down được!

  18. #14
    dinhluu768's Avatar
    dinhluu768 vẫn chưa có mặt trong diễn đàn Búa Gỗ
    Tham gia
    Jul 2010
    Bài
    13
    Cảm ơn
    20
    Điểm: 1/1 bài viết

    Default

    Part 4 không được bạn ơi

  19. #15
    VoDanhPhD's Avatar
    VoDanhPhD vẫn chưa có mặt trong diễn đàn Thành viên đang bị kỷ luật
    Tham gia
    Oct 2011
    Đến từ
    HỆ THỐNG TRONG QUÁ TRÌNH TỐI ƯU & HOÀN THÀNH MỤC TIÊU !! NGỪNG ONLINE DÀI HẠN !
    Bài
    992
    Cảm ơn
    148
    Điểm
    787/355 bài viết

    Default

    Xem 3d về thế giớ động vật khoái thật - cá bơi ra ngoài màn hình ...like
    Thanks nhiệt tình ....

 

 
Trang 1/2 1 2 cuốicuối

Quyền sử dụng

  • Bạn không thể gửi chủ đề mới
  • Bạn không thể gửi trả lời
  • Bạn không thể gửi file đính kèm
  • Bạn không thể tự sửa bài viết của mình
  •