Follow us on...
Follow us on Twitter Follow us on Facebook Watch us on YouTube

Giúp các bé đáng thương ấy với

Gameshow “Ai Là Triệu Phú” trên VTV đang chờ đón bạn – Tải ngay!

Bán đấu giá ủng hộ từ thiện

Sự kiện công nghệ lớn nhất trong năm của Sony sắp đổ bộ Hà Nội

Chiêm ngưỡng BaoMoi đẹp "tuyệt diệu" trên Windows Phone

Tin tức công nghệ mới
kết quả từ 1 tới 4 trên 4
  1. #1
    covico's Avatar
    covico vẫn chưa có mặt trong diễn đàn Rìu Vàng
    Tham gia
    Dec 2008
    Đến từ
    Hà Nội
    Bài
    760
    Cảm ơn
    27
    Điểm
    3.252/634 bài viết

    Default [FsVN]17 Moments of Spring - Mười bảy khoảnh khắc mùa xuân (1973) Thuyết minh TV chuẩn

    17 Moments of Spring - Mười bảy khoảnh khắc mùa xuân (1973)

    Phim kinh điển về đề tài chiến tranh - 12 tâp chất lượng tốt (Thuyết minh rất rõ của hãng phim Phương Nam)



    General
    Complete name : 17 Khoanh Khac Mua Xuan (1973)TMTV (12EP - 20.8GB)\17KhoanhKhacMuaXuan(Tap1-2).mkv
    Format : Matroska
    Format version : Version 2
    File size : 3.59 GiB
    Duration : 1h 44mn
    Overall bit rate : 4 899 Kbps

    Video
    ID : 1
    Codec ID : V_MPEG4/ISO/AVC
    Duration : 1h 44mn
    Bit rate : 4 449 Kbps
    Width : 720 pixels
    Height : 480 pixels
    Display aspect ratio : 1.708
    Frame rate mode : Constant
    Frame rate : 29.970 fps
    Bits/(Pixel*Frame) : 0.430
    Stream size : 3.19 GiB (89%)

    Audio
    ID : 2
    Codec ID : A_AC3
    Duration : 1h 44mn
    Bit rate mode : Constant
    Bit rate : 448 Kbps
    Channel(s) : 2 channels
    Sampling rate : 48.0 KHz
    Bit depth : 16 bits
    Stream size : 336 MiB (9%)
    Language : VIETNAMESE

    Phim được làm tại xưởng phim Gorky, do Tatyana Lioznova đạo diễn và dựa trên cuốn tiểu thuyết cùng tên của nhà văn Yulian Semyonov. Phim được chia làm 12 tập với mỗi tập có độ dài khoảng 70 phút và cả phim có thời lượng khoảng 840 phút.
    Bộ phim nói về cuộc đời (đã được hư cấu) của một điệp viên người Nga tên là Isaev hoạt động tại nước Đức Quốc Xã dưới tên Đức là Stirlitz, do diễn viên Soviet Vyacheslav Tikhonov đóng.

    Nội dung phim tập trung vào hoạt động của Isaev trong mười bảy ngày cuối cùng trước khi chiến tranh thế giới lần thứ hai kết thúc. Các vai diễn chính khác do Leonid Bronevoy, Oleg Tabakov, Rostislav Plyatt và Vasily Lanovoy đảm nhận.

    Phần âm nhạc của bộ phim do nhạc sĩ Mikayel Tariverdyev viết. Bài hát có tên là "Khoảnh khắc này không phải là vô nghĩa".

    Bộ phim trở nên quen thuộc khắp Liên Xô và rất nhiều câu nói trong phim cũng đã được nhiều người thuộc lòng và sử dụng trong đời thường. Hiện đang có thảo luận về việc xây dựng một tượng đài kỷ niệm Stirlitz ở thành phố Gorokhovets, nơi ông sinh ra.

    Sau 35 năm, kênh truyền hình “Nước Nga“ quyết định làm mới – tô màu cho bộ phim huyền thoại này. 12 tập của bộ phim được tô màu hoàn tất trong thời gian 3 năm, với kinh phí gần 3 triệu dollar. Hơn 600 chuyên gia từ Hàn Quốc, Mỹ, Ấn Độ và Trung Quốc tham gia dự án này. Bộ phim cũng được làm lại về phần hiệu ứng âm thanh thực tế hơn.












    Thay đổi nội dung bởi covico; 15-09-2012 lúc 09:43.

  2. #2
    hellsing's Avatar
    hellsing vẫn chưa có mặt trong diễn đàn Rìu Sắt
    Tham gia
    Nov 2007
    Bài
    145
    Cảm ơn
    23
    Điểm
    11/11 bài viết

    Default

    có file torent ko chũ top ơi nhìn dl oải quá

  3. #3
    caravan08's Avatar
    caravan08 vẫn chưa có mặt trong diễn đàn Rìu Chiến Bạc
    Tham gia
    Jul 2011
    Đến từ
    Clementi - Singapore
    Bài
    3.467
    Cảm ơn
    2.427
    Điểm
    4.022/911 bài viết

    Default

    mỗi tập hơn 3Gb, khiếp quá!
    NHỜ CÁC BẠN GỬI GIÚP MÌNH CLIP NÀY ĐẾN NGƯỜI YÊU NHÉ!
    http://www.vn-zoom.com/f43/nho-cac-b...u-2546880.html
    MỌI NGƯỜI ĐỌC CÁI NÀY NHÉ!
    http://www.vn-zoom.com/f559/xin-ban-...y-1901622.html

  4. #4
    covico's Avatar
    covico vẫn chưa có mặt trong diễn đàn Rìu Vàng
    Tham gia
    Dec 2008
    Đến từ
    Hà Nội
    Bài
    760
    Cảm ơn
    27
    Điểm
    3.252/634 bài viết

    Default

    Trích caravan08 View Post
    mỗi tập hơn 3Gb, khiếp quá!
    Đấy là dung lượng của 2 tập chứ ko phải một tập.

 

 

Quyền sử dụng

  • Bạn không thể gửi chủ đề mới
  • Bạn không thể gửi trả lời
  • Bạn không thể gửi file đính kèm
  • Bạn không thể tự sửa bài viết của mình
  •