Follow us on...
Follow us on Twitter Follow us on Facebook Watch us on YouTube

Smartphone WIKO của Pháp chính thức xuất hiện tại Việt Nam

Tìm HD - Phần mềm tìm và xem phim HD miễn phí

Cuộc thi khoảnh khắc tuyệt vời cùng Vn-Zoom.com

Chiêm ngưỡng BaoMoi đẹp "tuyệt diệu" trên Windows Phone

Tuyển thành viên nhóm Reviews diễn đàn

VN-Zoom & ASUS đón siêu phẩm,tăng tốc chuẩn bị ASUS Expo 2014
kết quả từ 1 tới 4 trên 4
  1. #1
    quocvuong_vn2004's Avatar
    quocvuong_vn2004 vẫn chưa có mặt trong diễn đàn Rìu Chiến Vàng
    Tham gia
    Oct 2010
    Đến từ
    Vietnam
    Bài
    7.277
    Cảm ơn
    2.043
    Điểm
    40.497/4.706 bài viết
    VR power
    15

    Default [Võ thuật|1 link] Ong Bak 2 2008 720p BluRay DTS x264-BrRip.(Truy Tìm Tượng Phật 2)

    Ong Bak 2 2008 720p BluRay DTS x264-BrRip
    (Truy Tìm Tượng Phật 2)



    IMDb







    Ngôi sao võ thuật Thái Tony Jaa trở lại màn ảnh với những cảnh chiến đấu đầy bạo lực, cùng sự kết hợp của nhiều môn võ thuật châu Á.
    Một ngày kia, cậu bé Tien - con trai của một trong bốn vị đại tướng quân - được cha mẹ đưa tới một nơi xa nhà để học múa. Cậu không hiểu tại sao cha không cho mình học võ để tự vệ và có thể đi theo con đường của ông sau này. Nhưng chỉ vừa kịp làm quen với nơi ở mới, Tien đã phải chịu nỗi đau lớn nhất trong đời: cha mẹ cậu bị phản bội và sát hại.
    Trên đường trốn chạy, Tien bị bắt làm nô lệ. Chưa hiểu chuyện gì đang xảy ra, Tien bị đẩy xuống một hồ nước sâu. Cậu phải giết chết con cá sấu dưới đó nếu muốn sống sót. Đó cũng là lúc vị cứu tinh của Tien xuất hiện: thủ lĩnh hải tặc Chernang (Sorapong Chatree) của vùng vách đá Geruda Wing. Tien được ông đưa về nuôi và dạy võ thuật.
    Đến tuổi trưởng thành, Tien (Tony Jaa) được Chernang giao lại ngôi vị thủ lĩnh, sau khi xuất sắc vượt qua một loạt những thử thách về sự lanh lợi, mưu trí, võ thuật và tâm trí. Nhưng vị thủ lĩnh trẻ của toán cướp biển vẫn bị dằn vặt bởi những ký ức về quá khứ. Tien quyết định lên đường tìm lãnh chúa Rajasena (Sarunyu Wongkrachang) - kẻ thù đã giết cha mẹ anh.



    HTML Code:
    Ong bak 2 (2008)Ong.Bak.2.2008.720p.BluRay.DTS.x264-BrRip.mkv
          Format : Matroska
          Format version : Version 2
          File size : 4.37 GiB
          Duration : 1h 37mn
          Overall bit rate : 6 411 Kbps
          Movie name : Ong Bak 2 2008 720p BluRay dts x264-BrRip.net
          http://www.imdb.com/title/tt0785035/
       Video
          Format : AVC
          Format/Info : Advanced Video Codec
          Format profile : High@L4.1
          Format settings, CABAC : Yes
          Format settings, ReFrames : 5 frames
          Muxing mode : Header stripping
          Codec ID : V_MPEG4/ISO/AVC
          Duration : 1h 37mn
          Bit rate : 4 903 Kbps
          Width : 1 280 pixels
          Height : 544 pixels
          Display aspect ratio : 2.35:1
          Frame rate mode : Constant
          Frame rate : 24.000 fps
          Color space : YUV
          Chroma subsampling : 4:2:0
          Bit depth : 8 bits
          Scan type : Progressive
          Bits/(Pixel*Frame) : 0.293
          Stream size : 3.25 GiB (74%)
          Writing library : x264 core 67 r1148 400740b
        Audio
          Format : DTS
          Format/Info : Digital Theater Systems
          Mode : 16
          Format settings, Endianness : Big
          Muxing mode : Header stripping
          Codec ID : A_DTS
          Duration : 1h 37mn
          Bit rate mode : Constant
          Bit rate : 1 509 Kbps
          Channel(s) : 6 channels
          Channel positions : Front: L C R, Side: L R, LFE
          Sampling rate : 48.0 KHz
          Bit depth : 24 bits
          Compression mode : Lossy
          Stream size : 1.03 GiB (24%)
          Title : Thai | dts | 5.1 ch




    Acc Vip
    ID: vnzoomvip - pass: share.vnn.vn
    ID: vnzoomvip2 - pass: share.vnn.vn
    Acc: ducuong001 Pass: 12345654321

    | 4.37 GB |

    FB Pages
    Chia Sẻ Phim HD

    Update Các Phim Mới Nhât.

  2. Có 8 thành viên cảm ơn quocvuong_vn2004 cho bài viết này:
    dahvtc (13-09-2013), Gol D. Roger (01-09-2013), osinlove3111 (11-04-2013), rubia (28-05-2013), saigon6002 (11-06-2013), thanhsangpro (21-03-2013), Tiên Cầm (10-06-2013), vanlen0121 (04-05-2013)

  3. #2
    quocvuong_vn2004's Avatar
    quocvuong_vn2004 vẫn chưa có mặt trong diễn đàn Rìu Chiến Vàng
    Tham gia
    Oct 2010
    Đến từ
    Vietnam
    Bài
    7.277
    Cảm ơn
    2.043
    Điểm
    40.497/4.706 bài viết
    VR power
    15

    Default

    Phần 1-2003

    Phần 2-2008

    Phần 3-2010
    FB Pages
    Chia Sẻ Phim HD

    Update Các Phim Mới Nhât.

  4. Có 3 thành viên cảm ơn quocvuong_vn2004 cho bài viết này:
    Gol D. Roger (01-09-2013), osinlove3111 (11-04-2013), Tiên Cầm (10-06-2013)

  5. #3
    vanlen0121's Avatar
    vanlen0121 vẫn chưa có mặt trong diễn đàn Rìu Sắt
    Tham gia
    Aug 2008
    Bài
    183
    Cảm ơn
    294
    Điểm
    29/17 bài viết
    VR power
    0

    Default

    Hơi nặng nhỉ! Chéc xem ảnh sắc nét lắm đây!

  6. #4
    rubia's Avatar
    rubia vẫn chưa có mặt trong diễn đàn Rìu Bạc
    Tham gia
    Oct 2011
    Bài
    380
    Cảm ơn
    305
    Điểm
    62/41 bài viết
    VR power
    0

    Default

    trailer hấp dẫn thật!!!!!!!

 

 

Quyền sử dụng

  • Bạn không thể gửi chủ đề mới
  • Bạn không thể gửi trả lời
  • Bạn không thể gửi file đính kèm
  • Bạn không thể tự sửa bài viết của mình
  •