Follow us on...
Follow us on Twitter Follow us on Facebook Watch us on YouTube

Giúp các bé đáng thương ấy với

Gameshow “Ai Là Triệu Phú” trên VTV đang chờ đón bạn – Tải ngay!

Tuyển uploader dự án Safeshared có thu nhập

Chiêm ngưỡng BaoMoi đẹp "tuyệt diệu" trên Windows Phone

Tin tức công nghệ mới nhất

Tuyển Mod box Mobile
Trang 1/15 1 2 3 11 ... cuốicuối
kết quả từ 1 tới 15 trên 222
  1. #1
    quanghuyncu's Avatar
    quanghuyncu vẫn chưa có mặt trong diễn đàn Cống hiến cho [V-Z]
    Tham gia
    Oct 2010
    Đến từ
    Đài Loan
    Bài
    837
    Cảm ơn
    141
    Điểm
    1.803/289 bài viết

    Default [MF]Tổng hợp Spartacus tất cả các phần 720p [sub Việt] 18+

    PHẦN 1: MÁU VÀ CÁT


    Code:
    Format                           : Matroska
    File size                        : 1.46 GiB
    Duration                         : 54mn 15s
    Overall bit rate                 : 3 846 Kbps
    Encoded date                     : UTC 2010-01-23 06:09:00
    Writing application              : mkvmerge v2.4.0 ('Fumbling Towards Ecstasy') built on Nov  7 2008 17:24:23
    Writing library                  : libebml v0.7.8 + libmatroska v0.8.1
    
    Video
    ID                               : 1
    Format                           : AVC
    Format/Info                      : Advanced Video Codec
    Format profile                   : High@L4.1
    Format settings, CABAC           : Yes
    Format settings, ReFrames        : 5 frames
    Codec ID                         : V_MPEG4/ISO/AVC
    Duration                         : 54mn 15s
    Bit rate                         : 3 459 Kbps
    Width                            : 1 280 pixels
    Height                           : 720 pixels
    Display aspect ratio             : 16:9
    Frame rate                       : 23.976 fps
    Color space                      : YUV
    Chroma subsampling               : 4:2:0
    Bit depth                        : 8 bits
    Scan type                        : Progressive
    Bits/(Pixel*Frame)               : 0.157
    Stream size                      : 1.28 GiB (88%)
    Writing library                  : x264 core 80 r1376 3feaec2
    Encoding settings                : cabac=1 / ref=5 / deblock=1:-2:-1 / analyse=0x3:0x113 / me=umh / subme=8 / psy=1 / psy_rd=1.0:0.0 / mixed_ref=0 / me_range=16 / chroma_me=1 / trellis=1 / 8x8dct=1 / cqm=0 / deadzone=21,11 / fast_pskip=1 / chroma_qp_offset=-2 / threads=12 / sliced_threads=0 / nr=0 / decimate=1 / mbaff=0 / constrained_intra=0 / bframes=3 / b_pyramid=0 / b_adapt=1 / b_bias=0 / direct=1 / wpredb=1 / wpredp=2 / keyint=250 / keyint_min=25 / scenecut=40 / rc_lookahead=40 / rc=2pass / mbtree=1 / bitrate=3459 / ratetol=1.0 / qcomp=0.60 / qpmin=10 / qpmax=51 / qpstep=4 / cplxblur=20.0 / qblur=0.5 / ip_ratio=1.40 / aq=1:1.00
    Language                         : English
    
    Audio
    ID                               : 2
    Format                           : AC-3
    Format/Info                      : Audio Coding 3
    Mode extension                   : CM (complete main)
    Codec ID                         : A_AC3
    Duration                         : 54mn 15s
    Bit rate mode                    : Constant
    Bit rate                         : 384 Kbps
    Channel(s)                       : 6 channels
    Channel positions                : Front: L C R, Side: L R, LFE
    Sampling rate                    : 48.0 KHz
    Bit depth                        : 16 bits
    Compression mode                 : Lossy
    Stream size                      : 149 MiB (10%)
    Tên phim: Spartacus - Blood and sand
    Nước sản xuất: USA
    Năm sản xuất: 2010
    Hãng sản xuất: Starz
    Thể loại: Hành động

    Nội dung:

    "Spartacus Máu và cát" được làm dựa trên một nhân vật lịch sử có thật, anh hùng nô lệ La Mã Spartacus. Anh vốn là một người Thracian vì muốn đánh đuổi bọn thổ phỉ đã liên minh với quân La Mã nhưng sau đó lại bị quân La Mã phản bội và bị bắt làm nô lệ.Sau anh được một kẻ chuyên huấn luyện võ sĩ giác đấu mua lại và huấn luyện.Kể từ khi bị bắt làm nô lê Spartacus chưa bao giờ nguôi mong muốn gặp lại người vợ của mình,người hiện cũng đã bị bán đi làm nô lệ.Mong muốn gặp lại vợ và khao khát sống đã thôi thúc Spartacus trở thành một đấu sĩ xuất sắc.Theo lịch sử Spartacus đã ******** một đội quân nô lệ nổi dậy chống lại *********** La Mã.

    Ai Đã Từng Xem rome hay 300 thì Không Nên Bỏ Qua Bộ Phim Này, Tuy Chỉ Là Phim Truyền Hình Nhưng Độ Hoành Tráng Không Phải Thường. Phim Không Hề Thua Kém Rome Về Độ Hoành Tráng Hay Những Cảnh ... Nóng Bỏng (rất Nóng Đấy Cấm Trẻ Em Dưới 18t)

    Nhân Vật Chính Là Người Anh Hùng Spartacus - Chiến Binh Của Quân Đồng Minh La Mã Bị Bắt Làm Tù Nhân Và Buộc Phải Thi Đấu Như 1 Đấu Sĩ Tại Đấu Trường La mã. Sau Nhiều Trận Đấu Thắng Lợi, Spartacus Bị Bán Làm Nô Lệ Cho 2 Vợ chồng Lucretia Và Batiatus... nam Diễn Viên Người Úc Andy Whitfield Từng Đc Biết Đến Qua 1 Số Series như Gabriel, Mcleod's Daughters Vào Vai Anh Hùng Spartacus, Còn Nữ Diễn viên Lucy Lawles (từng Nổi Tiếng Với Series Xena: Warrior Princess) Vào vai Bà Chủ Xinh Đẹp Lucretia. John Hannah - Diễn Viên Người Anh (từng vào Vai Jonnathan Trong The Mummy) Thủ Vai Ông Chồng Batiatus. phim Quay Tại New Zeland, Trong Series Sẽ Sử Dụng Những Yếu Tố Kĩ Xảo Và Phong Cách Làm Phim Của 300. Phim Đan Xen Những Yếu Tố Hành Động, Sex và Những Trận Chiến Mang Đậm Tính Sử Thi.





    LINK TẢI PHIM:

    Tập 1:
    Code:
    http://www.mediafire.com/?wyn98850zvkhw
    Tập 2:
    Code:
    http://www.mediafire.com/?3i9zvvxqljvcv
    Tập 3:
    Code:
    http://www.mediafire.com/?q69vtr6me4jad
    Tập 4:
    Code:
    http://www.mediafire.com/?1ttmv5j3bo0vm
    Tập 5:
    Code:
    http://www.mediafire.com/?jtnlt53faol3c
    Tập 6:
    Code:
    http://www.mediafire.com/?3il541kxe51ll
    Tập 7:
    Code:
    http://www.mediafire.com/?vixrsaygfkaeu
    Tập 8:
    Code:
    http://www.mediafire.com/?6980itbdbkqsw
    Tập 9:
    Code:
    http://www.mediafire.com/?wwe35w1m0918z
    Tập 10:
    Code:
    http://www.mediafire.com/?435c48t1vm2le
    Tập 11:
    Code:
    http://www.mediafire.com/?3e66oaidt7bse
    Tập 12:
    Code:
    http://www.mediafire.com/?a9143lbx9rbdn
    Tập 13:
    Code:
    http://www.mediafire.com/?99yn99dxyunlv
    PASS: qhvnzoom

    PHẦN 2: CHÚA TỂ ĐẤU TRƯỜNG


    Code:
    Duration   : 51mn 17s
    Bit rate   : 3 682 Kbps
    Width      : 1 280 pixels
    Height     : 720 pixels
    Frame rate : 23.976 fps
    Writing library   : x264 
    Language   : English
    Audio
    Format      : AC-3
    Bit rate    : 384 Kbps
    Channel(s)  : 6 channels
    Đạo diễn: Rick Jacobson
    Kịch bản: Unknown
    Thể loại: Action | Adventure | Biography | Drama | History
    Đánh giá: 9.0/10
    Thời lượng: 60 Minutes
    Ngôn ngữ: English
    Quốc gia: USA

    Trước khi Spartacus hạ gục đối thủ đầu tiên trên đấu trường, có rất nhiều đấu sĩ đã bước qua cánh cổng đển với sân cát. "Spartacus: Gods of the Arena," phiên bản prequel được mong đợi nhất trong series "Spartacus: Blood and Sand," của kênh Starz, kể câu chuyện về nhà Vô địch đầu tiên của Ngôi nhà của Batiatus (House of Batiatus): chính là Gannicus (Dustin Clare) trong một thời gian tàn nhẫn hơn nhiều trước khi Spartacus đến nơi mà danh dự phải tìm đường vào đấu trường. Series mới bổ sung diễn viên Jaime Murray trong vai Gaia một kẻ thích bon chen đầy quyến rũ và Marisa Ramirez trong vai Melitta, ,một nữ nô lệ xinh đẹp phải đối mặt với quyết định tối thượng của trái tim. Jeffrey Thomas vai Titus cha của Batiatus. Phim còn có sự trở lại của John Hannah (Quintus Batiatus), Lucy Lawless (Lucretia), Peter Mensah (Oenomaus, trước khi anh trở thành Doctore, người huấn luyện đấu sĩ) và Manu Bennett (Crixus).

    Đầu phim, Quintus Batiatus thay quyền của cha mình là Titus trong khi ông đang đi thăm Sicilia. Nhưng Batiatus không hài lòng với cái ý nghĩ chỉ nắm quyền Ludus trong có một ngày, hắn khao khát quyền lực ********* và thanh thế tại Capua, và còn nhiều hơn thế nữa. Trong thế giới coi trọng về giai cấp như Rome cổ đại, Ngôi nhà của Batiatus phải có được sự nể trọng của giới ********* và những kẻ có vai vế trong xã hội, trước khi được cho phép để các chiến binh của Ngôi nhà được chiến đấu trong một giải vô địch rất được coi trọng có tên là Primus. Batiatus không chỉ phải sống sót trong chính trường đầy khắc nghiệt của Capua mà còn phải thúc ép Gannicus, chiến binh mà hắn hài lòng trở thành đấu sĩ vô địch để mang lại sự kính nể và tôn trọng dành cho Ngôi nhà của Batiatus.





    LINK TẢI PHIM:

    Tập 1:
    Code:
    http://www.mediafire.com/?6n0mqhvv7c63x
    Tập 2:
    Code:
    http://www.mediafire.com/?2g7p7roy663o7
    Tập 3:
    Code:
    http://www.mediafire.com/?ztjz7enkgwkzy
    Tập 4:
    Code:
    http://www.mediafire.com/?2wfrf46twbtel
    Tập 5:
    Code:
    http://www.mediafire.com/?xhyjhvq2vkhhr
    Tập 6:
    Code:
    http://www.mediafire.com/?4dpjwp42308c4
    PASS: qhvnzoom

    PHẦN 3: SỰ TRẢ THÙ


    Code:
    General
          Complete name :Spartacus.S02E02.720p.HDTV.X264-DIMENSION\Spartacus.S02E02.720p.HDTV.X264-DIMENSION.mkv
          Format : Matroska
          File size : 1.33 GiB
          Duration : 52mn 10s
          Overall bit rate : 3 663 Kbps
          Encoded date : UTC 2012-02-04 06:18:13
          Writing application : mkvmerge v3.0.0 ('Hang up your Hang-Ups') built on Apr 19 2010 11:58:49
          Writing library : libebml v0.7.7 + libmatroska v0.8.1
    
       Video
          ID : 1
          Format : AVC
          Format/Info : Advanced Video Codec
          Format profile : High@L4.1
          Format settings, CABAC : Yes
          Format settings, ReFrames : 5 frames
          Muxing mode : Container profile=Unknown@4.1
          Codec ID : V_MPEG4/ISO/AVC
          Duration : 52mn 7s
          Bit rate : 3 206 Kbps
          Width : 1 280 pixels
          Height : 720 pixels
          Display aspect ratio : 16:9
          Frame rate : 23.976 fps
          Resolution : 24 bits
          Colorimetry : 4:2:0
          Scan type : Progressive
          Bits/(Pixel*Frame) : 0.145
          Stream size : 1.17 GiB (87%)
          Writing library : x264 core 120 r2146 bcd41db
          Encoding settings :........
          Language : English
    
       Audio
          ID : 2
          Format : AC-3
          Format/Info : Audio Coding 3
          Codec ID : A_AC3
          Duration : 52mn 10s
          Bit rate mode : Constant
          Bit rate : 384 Kbps
          Channel(s) : 6 channels
          Channel positions : Front: L C R, Surround: L R, LFE
          Sampling rate : 48.0 KHz
          Stream size : 143 MiB (10%)
    
    iMDb RATiNG...: 8.7/10 from 44,783 users
    iMDb LiNK.....: http://www.imdb.com/title/tt1442449/
    Trên những gót chân đẫm máu chạy trốn khỏi Nhà Batiatus trong đoạn kết của "Spartacus: Blood and Sand", các võ sĩ giác đấu tiếp tục nổi dậy và bắt đầu reo rắc nỗi khiếp sợ vào trung tâm của ******** La Mã trong "Spartacus: Vengeance". Gaius Claudius Glaber và binh lính La Mã được cử tới Capua để nghiền nát sự lớn mạnh của đám nô lệ tự do do Spartacus ******** trước khi nó gây ra thiệt hại lớn hơn. Spartacus phải lựa chọn giữa việc thỏa mãn trả thù cá nhân với kẻ kết án vợ anh thành nô lệ và bị giết hoặc hy sinh lớn lao hơn để xây dựng đội quân từ những mảnh vỡ. Vẫn đầy đủ những pha hành động máu me, những cảnh tình ái nghệ thuật, âm mưu ghê tởm và chất hùng ca đã làm nên điều đặc biệt của series này, câu chuyện của Spartacus tiếp tục viết thành sử thi.







    LINK TẢI PHIM (REUP...):

    PASS: qhvnzoom

    LINK PHỤ ĐỀ:
    Thay đổi nội dung bởi quanghuyncu; 08-07-2012 lúc 10:35.

  2. Có 123 thành viên cảm ơn quanghuyncu cho bài viết này:
    0911991991 (09-03-2012), 177NTT (16-02-2012), 300em300 (15-05-2012), angel_of_dead (11-05-2012), bad251 (18-02-2012), batphonghan (09-05-2012), bảo_bingà (05-03-2012), bebicualo (09-04-2012), bh_nhox (12-02-2012), bibo (15-03-2012), bigbang1821 (11-03-2012), blue_angel_0795 (18-06-2012), buixuananh252513 (26-02-2012), buminh2006 (04-05-2012), cdagha (06-06-2013), changromeo87hp (19-04-2012), chaomaytaone (13-02-2012), chuotchaxauxi (13-04-2012), csinde (26-04-2012), denzi (01-04-2012), Devilmaylose (15-05-2012), doancongtu_88hp (08-05-2012), do_loc_hiep2007 (26-04-2012), duccndn07 (10-03-2012), duy1981 (06-04-2012), echipvn (11-09-2012), funboy301 (08-05-2012), ga_tapsu (12-07-2012), Gianggiahuy269 (06-04-2012), haimoc123 (21-03-2012), hainam_20688 (07-05-2012), hangko1980 (03-04-2012), heart_alonet (29-04-2012), heinekenok (24-03-2012), hienls2010 (03-03-2012), hiuhiu_man (12-05-2012), hungcoming (01-08-2012), hungkn199 (09-04-2012), hunters87 (21-03-2012), icphuong (11-03-2013), iiivvii247 (25-04-2012), johnnydan9 (27-02-2012), jos_skeleton (19-07-2012), jxpeace (18-05-2012), kai622899 (22-02-2012), kakaka3211 (29-07-2012), khangcoi87 (22-03-2012), khautrong12 (26-02-2012), khuatkiet (28-05-2012), kid410 (03-03-2012), kienconhocit (11-02-2012), killer1101 (19-04-2012), king1609 (24-06-2012), legend4986 (10-08-2012), lequangminhdl (10-03-2012), liiiiiii (25-02-2012), lilomana (11-04-2012), linhsa (11-04-2012), louiskoo_13 (25-05-2012), luongbui91 (09-05-2012), Luu My Hanh (03-03-2012), maojindo (02-05-2012), mazudai (02-04-2012), michealsoul (24-03-2012), minhhaixt (12-04-2012), mr.jenmx (10-04-2012), Mr.SZ149 (17-06-2012), Mr.VVjn (06-05-2012), mrpinekt (01-04-2012), mr_keobeo (25-03-2012), ngoctuanok (19-03-2012), ngogling (08-03-2012), nguyen93bn (20-04-2012), nic87 (01-04-2012), ocxaobo (23-03-2012), osomongpicasxo (09-05-2012), phamthanhnhat (02-03-2012), phanbanhut (09-07-2012), progame1132 (17-04-2012), qdqn91 (28-11-2012), r3dsky (22-03-2012), ruacon0105 (03-04-2012), sad.autumn60 (31-03-2012), saga (11-04-2012), satthu35 (27-06-2012), seamen_nt (16-03-2012), sieunhangao122 (31-03-2012), songthuong09 (23-05-2012), soundmax2300 (09-04-2012), starbobavn1 (14-02-2012), suphuhiep (25-02-2012), svchibiethoc (18-02-2012), tai_tranduc (23-04-2012), tfoxx (06-03-2012), thangnd_1211 (07-03-2012), thanhvien0110 (26-02-2013), thaodtp83 (04-04-2012), themummy (24-04-2012), thienlatinh (11-02-2012), thothaibinh (22-02-2012), tientb (21-02-2012), TONY67 (23-05-2012), trananhdungqng (23-04-2012), tranvuduc (16-05-2012), triofm (06-04-2012), Trongcoi (28-03-2012), trung01662011378 (16-02-2012), tsnguyenvan (05-05-2012), tuandaubac (08-04-2012), tuanzzzlk (27-02-2012), tuila123ha (02-05-2012), turin (16-04-2012), tuyetmuaha_nht (01-04-2012), vankhin02 (03-04-2012), vantin_nll (11-04-2012), VietStar1711 (21-02-2012), voduythanhvl (21-02-2012), vuanhmy123 (09-03-2012), vupham53 (04-11-2012), wavesanhdieu (14-05-2012), wemli (01-03-2013), zietkon (06-04-2012), zolahn (01-05-2012)

  3. #2
    kienconhocit's Avatar
    kienconhocit vẫn chưa có mặt trong diễn đàn Rìu Sắt
    Tham gia
    Nov 2010
    Bài
    128
    Cảm ơn
    116
    Điểm
    30/23 bài viết

    Default

    Cảm ơn bạn nhiều, công phu quá, đợi tiếp tập 3 của bạn!

  4. #3
    quanghuyncu's Avatar
    quanghuyncu vẫn chưa có mặt trong diễn đàn Cống hiến cho [V-Z]
    Tham gia
    Oct 2010
    Đến từ
    Đài Loan
    Bài
    837
    Cảm ơn
    141
    Điểm
    1.803/289 bài viết

    Default

    Trích kienconhocit View Post
    Cảm ơn bạn nhiều, công phu quá, đợi tiếp tập 3 của bạn!
    ok, mọi người chuẩn bị đón xem tập 3 nhé!

  5. Có 3 thành viên cảm ơn quanghuyncu cho bài viết này:
    300em300 (15-05-2012), jxpeace (18-05-2012), kienconhocit (11-02-2012)

  6. #4
    nouking's Avatar
    nouking vẫn chưa có mặt trong diễn đàn Búa Đá
    Tham gia
    Jun 2008
    Bài
    62
    Cảm ơn
    51
    Điểm
    105/15 bài viết

    Default

    Theo mình thì nên vứt phần 2 lên thành phần 1 thì xem sẽ hay và hợp lí hơn. Chứ xem đoạn sau xong rồi trở ngược lên đoạn trc xem chán lắm
    Sống mà không đê tiện nó phí gì đâu Đẹp trai mà ko ai công nhận

  7. Có 1 thành viên cảm ơn nouking cho bài viết này:
    300em300 (15-05-2012)

  8. #5
    quanghuyncu's Avatar
    quanghuyncu vẫn chưa có mặt trong diễn đàn Cống hiến cho [V-Z]
    Tham gia
    Oct 2010
    Đến từ
    Đài Loan
    Bài
    837
    Cảm ơn
    141
    Điểm
    1.803/289 bài viết

    Default

    Trích nouking View Post
    Theo mình thì nên vứt phần 2 lên thành phần 1 thì xem sẽ hay và hợp lí hơn. Chứ xem đoạn sau xong rồi trở ngược lên đoạn trc xem chán lắm
    Không hẳn thế đâu bạn ạ, mình nghĩ đạo diễn làm chắc có nguyên nhân đó, phần 1 về Spartacus, phần 2 về Gandicus, và phần 3 hình như hai nhân vật này sẽ gặp nhau đó!

  9. Có 1 thành viên cảm ơn quanghuyncu cho bài viết này:
    300em300 (15-05-2012)

  10. #6
    kienconhocit's Avatar
    kienconhocit vẫn chưa có mặt trong diễn đàn Rìu Sắt
    Tham gia
    Nov 2010
    Bài
    128
    Cảm ơn
    116
    Điểm
    30/23 bài viết

    Default

    có tập 3 rồi cả nhà ơi!

  11. #7
    quanghuyncu's Avatar
    quanghuyncu vẫn chưa có mặt trong diễn đàn Cống hiến cho [V-Z]
    Tham gia
    Oct 2010
    Đến từ
    Đài Loan
    Bài
    837
    Cảm ơn
    141
    Điểm
    1.803/289 bài viết

    Default

    Trích kienconhocit View Post
    có tập 3 rồi cả nhà ơi!
    nhưng vẫn chưa có sub, bà con ráng chờ nha!

  12. Có 1 thành viên cảm ơn quanghuyncu cho bài viết này:
    300em300 (15-05-2012)

  13. #8
    kienconhocit's Avatar
    kienconhocit vẫn chưa có mặt trong diễn đàn Rìu Sắt
    Tham gia
    Nov 2010
    Bài
    128
    Cảm ơn
    116
    Điểm
    30/23 bài viết

    Default

    hôm nay có sub chưa bạn ơi?

  14. Có 1 thành viên cảm ơn kienconhocit cho bài viết này:
    300em300 (15-05-2012)

  15. #9
    quanghuyncu's Avatar
    quanghuyncu vẫn chưa có mặt trong diễn đàn Cống hiến cho [V-Z]
    Tham gia
    Oct 2010
    Đến từ
    Đài Loan
    Bài
    837
    Cảm ơn
    141
    Điểm
    1.803/289 bài viết

    Default

    Đã có sub tập 3 cho mọi người nè:

  16. Có 3 thành viên cảm ơn quanghuyncu cho bài viết này:
    300em300 (15-05-2012), kienconhocit (15-02-2012), Luu My Hanh (04-03-2012)

  17. #10
    kienconhocit's Avatar
    kienconhocit vẫn chưa có mặt trong diễn đàn Rìu Sắt
    Tham gia
    Nov 2010
    Bài
    128
    Cảm ơn
    116
    Điểm
    30/23 bài viết

    Default

    Trích quanghuyncu View Post
    Đã có sub tập 3 cho mọi người nè:
    Oh yeahh, có sub Việt rồi bà con ơi!

  18. #11
    177NTT's Avatar
    177NTT vẫn chưa có mặt trong diễn đàn Gà Con
    Tham gia
    Aug 2009
    Bài
    6
    Cảm ơn
    8
    Điểm: 1/1 bài viết

    Default

    Cảm ơn bạn nhiều!

  19. #12
    Mr.PC's Avatar
    Mr.PC vẫn chưa có mặt trong diễn đàn Rìu Bạc Đôi
    Tham gia
    Jun 2008
    Bài
    557
    Cảm ơn
    101
    Điểm
    83/71 bài viết

    Default

    Trích kienconhocit View Post
    Oh yeahh, có sub Việt rồi bà con ơi!
    có cụ nào check chưa? thấy mấy cái sub này bất ổn quá, chả khớp gì cả...

  20. Có 1 thành viên cảm ơn Mr.PC cho bài viết này:
    300em300 (15-05-2012)

  21. #13
    koolboy188's Avatar
    koolboy188 vẫn chưa có mặt trong diễn đàn Rìu Vàng
    Tham gia
    Jun 2008
    Đến từ
    Ha Noi, Vietnam
    Bài
    850
    Cảm ơn
    353
    Điểm
    207/130 bài viết

    Default

    NÓNG QUÁ!!!!! s đợi cái này lâu lắm rồi đó. Thanks chủ top nhé

  22. #14
    quanghuyncu's Avatar
    quanghuyncu vẫn chưa có mặt trong diễn đàn Cống hiến cho [V-Z]
    Tham gia
    Oct 2010
    Đến từ
    Đài Loan
    Bài
    837
    Cảm ơn
    141
    Điểm
    1.803/289 bài viết

    Default

    Trích Mr.PC View Post
    có cụ nào check chưa? thấy mấy cái sub này bất ổn quá, chả khớp gì cả...
    Hiện nay mới có bản sub này dịch cho tập 03, dù sao cũng nên cảm ơn người đã dịch bạn ạ!

  23. Có 1 thành viên cảm ơn quanghuyncu cho bài viết này:
  24. #15
    …»¯°•Çristian Duy•°¯«…'s Avatar
    …»¯°•Çristian Duy•°¯«… vẫn chưa có mặt trong diễn đàn ►|| £¡kε A ßσss ™ ♫
    Tham gia
    Jun 2009
    Đến từ
    ►| *Hà Nội niềm tin và hy vọng ợ* :beauty: ♥ ♫
    Bài
    22.692
    Cảm ơn
    28.123
    Điểm
    18.242/9.779 bài viết

    Default

    I like Spartacus

  25. Có 1 thành viên cảm ơn …»¯°•Çristian Duy•°¯«… cho bài viết này:
    soundmax2300 (09-04-2012)

 

 
Trang 1/15 1 2 3 11 ... cuốicuối

Quyền sử dụng

  • Bạn không thể gửi chủ đề mới
  • Bạn không thể gửi trả lời
  • Bạn không thể gửi file đính kèm
  • Bạn không thể tự sửa bài viết của mình
  •